Standby IOI | THESE GLASSES MAKES YOU DRUNK | Eps7 The Keepers - Season 1 (2017)

Details for this torrent 


Gold 2018 Hindi 720p PRE-DVDRip x264 AAC [MW]
Type:
Video > Movies
Files:
1
Size:
1.35 GiB (1448545323 Bytes)
Tag(s):
Drama History Sport
Uploaded:
2018-08-16 12:06:07 GMT
By:
MFreaky
Seeders:
29
Leechers:
3
Comments
0  

Info Hash:
979DA35F0866827F37CF4839763A2CFFA6E1860A




(Problems with magnets links are fixed by upgrading your torrent client!)
 http://pichub.site/image/S4kzX 
http://pichub.site/image/S4yqJ 
http://pichub.site/image/S4hw5 
http://pichub.site/image/S4tTj 
http://pichub.site/image/S4i0h 
http://pichub.site/image/S48Er

Video
ID : 1
Format : AVC
Format/Info : Advanced Video Codec
Format profile : [email protected]
Format settings : CABAC / 4 Ref Frames
Format settings, CABAC : Yes
Format settings, RefFrames : 4 frames
Codec ID : V_MPEG4/ISO/AVC
Duration : 2 h 21 min
Bit rate : 1 200 kb/s
Width : 1 280 pixels
Height : 558 pixels
Display aspect ratio : 2.25:1
Frame rate mode : Constant
Frame rate : 25.000 FPS
Color space : YUV
Chroma subsampling : 4:2:0
Bit depth : 8 bits
Scan type : Progressive
Bits/(Pixel*Frame) : 0.067
Stream size : 1.19 GiB (88%)
Writing library : x264 core 155 r2901 7d0ff22
Default : Yes
Forced : No

Audio
ID : 2
Format : AAC
Format/Info : Advanced Audio Codec
Format profile : LC
Codec ID : A_AAC-2
Duration : 2 h 21 min
Bit rate : 161 kb/s
Channel(s) : 2 channels
Channel positions : Front: L R
Sampling rate : 48.0 kHz
Frame rate : 46.875 FPS (1024 SPF)
Compression mode : Lossy
Stream size : 162 MiB (12%)
Language : English
Default : Yes
Forced : No