BlackFly | The Midnight Man (2016) | New Girl

Details for this torrent 


Satyameva Jayate 2018 Hindi 720p PRE-DVDRip x264 AAC [MW]
Type:
Video > Movies
Files:
1
Size:
1.29 GiB (1381667633 Bytes)
Tag(s):
Action Thriller
Uploaded:
2018-08-16 12:04:57 GMT
By:
MFreaky
Seeders:
70
Leechers:
17
Comments
0  

Info Hash:
17960A9ED7B9E6AE07B841415839CFE46A2E8BE4




(Problems with magnets links are fixed by upgrading your torrent client!)
 http://pichub.site/image/S42I4 
http://pichub.site/image/S4lly 
http://pichub.site/image/S4Xy0 
http://pichub.site/image/S46qb 
http://pichub.site/image/S4nLV 
http://pichub.site/image/S4sFT

Video
ID : 1
Format : AVC
Format/Info : Advanced Video Codec
Format profile : [email protected]
Format settings : CABAC / 4 Ref Frames
Format settings, CABAC : Yes
Format settings, RefFrames : 4 frames
Codec ID : V_MPEG4/ISO/AVC
Duration : 2 h 15 min
Bit rate : 1 200 kb/s
Width : 1 280 pixels
Height : 544 pixels
Display aspect ratio : 2.35:1
Frame rate mode : Constant
Frame rate : 25.000 FPS
Color space : YUV
Chroma subsampling : 4:2:0
Bit depth : 8 bits
Scan type : Progressive
Bits/(Pixel*Frame) : 0.069
Stream size : 1.13 GiB (88%)
Writing library : x264 core 155 r2901 7d0ff22
Default : Yes
Forced : No

Audio
ID : 2
Format : AAC
Format/Info : Advanced Audio Codec
Format profile : LC
Codec ID : A_AAC-2
Duration : 2 h 15 min
Bit rate : 161 kb/s
Channel(s) : 2 channels
Channel positions : Front: L R
Sampling rate : 48.0 kHz
Frame rate : 46.875 FPS (1024 SPF)
Compression mode : Lossy
Stream size : 155 MiB (12%)
Language : Hindi
Default : Yes
Forced : No